Bug#490272: fff

Joey Hess joeyh at debian.org
Fri Jul 11 06:39:19 UTC 2008

Package: ffmpeg
Version: 0.svn20080206-9
Severity: normal

joey at kodama:~>ffmpeg -i movie.avi -target pal-dv video.dv
FFmpeg version UNKNOWN, Copyright (c) 2000-2008 Fabrice Bellard, et al.
  configuration: --enable-gpl --enable-liba52 --enable-libfaad --enable-pp --enable-swscaler --enable-x11grab --prefix=/usr --enable-libgsm --enable-libtheora --enable-libvorbis --enable-pthreads --disable-strip --enable-libdc1394 --disable-armv5te --disable-armv6 --disable-iwmmxt --disable-mmx --disable-altivec --disable-ssse3 --disable-vis --enable-shared --disable-static
  libavutil version: 49.6.0
  libavcodec version: 51.50.0
  libavformat version: 52.7.0
  libavdevice version: 52.0.0
  built on Jul  2 2008 16:08:00, gcc: 4.3.1
Input #0, avi, from 'movie.avi':
  Duration: 00:02:22.2, start: 0.000000, bitrate: 814 kb/s
    Stream #0.0: Video: mpeg4, yuv420p, 640x480 [PAR 1:1 DAR 4:3], 24.00 tb(r)
Output #0, dv, to 'video.dv':
    Stream #0.0: Video: dvvideo, yuv420p, 720x576 [PAR 16:15 DAR 4:3], q=2-31, 200 kb/s, 25.00 tb(c)
Stream mapping:
  Stream #0.0 -> #0.0
Press [q] to stop encoding
ffmpeg: symbol lookup error: ffmpeg: undefined symbol: frame_hook_process
zsh: exit 127   ffmpeg -i movie.avi -target pal-dv video.dv

I have had the marilliat libraries installed, but removed them as you can
see below, and I'm still seeing this. 

(Only debian-multimedia package I have installed now is w32codecs.)

-- System Information:
Debian Release: lenny/sid
  APT prefers unstable
  APT policy: (500, 'unstable'), (500, 'stable')
Architecture: i386 (i686)

Kernel: Linux 2.6.25-2-686 (SMP w/1 CPU core)
Locale: LANG=en_US.UTF-8, LC_CTYPE=en_US.UTF-8 (charmap=UTF-8)
Shell: /bin/sh linked to /bin/bash

Versions of packages ffmpeg depends on:
ii  libavcodec51             0.svn20080206-9 ffmpeg codec library
ii  libavdevice52            0.svn20080206-9 ffmpeg device handling library
ii  libavformat52            0.svn20080206-9 ffmpeg file format library
ii  libavutil49              0.svn20080206-9 ffmpeg utility library
ii  libc6                    2.7-12          GNU C Library: Shared libraries
ii  libfreetype6             2.3.7-1         FreeType 2 font engine, shared lib
ii  libimlib2                1.4.0-1.1       powerful image loading and renderi
ii  libsdl1.2debian          1.2.13-2        Simple DirectMedia Layer
ii  libswscale0              0.svn20080206-9 ffmpeg video scaling library

ffmpeg recommends no packages.

-- no debconf information

see shy jo
-------------- next part --------------
A non-text attachment was scrubbed...
Name: not available
Type: application/pgp-signature
Size: 189 bytes
Desc: Digital signature
Url : http://lists.alioth.debian.org/pipermail/pkg-multimedia-maintainers/attachments/20080711/601ffb23/attachment.pgp 

More information about the pkg-multimedia-maintainers mailing list