Bug#490272: More details

Adria Junyent euclidesmela at yahoo.com
Wed Jul 23 07:05:13 UTC 2008

I also have the same problem on Debian and as you can see it happens with any type of conversion:

adria at compiuta:~/Desktop/prov$ ffmpeg -i Pollastre\ estiu\ 2008\ platja.MOV -vcodec rawvideo prova.avi
FFmpeg version UNKNOWN, Copyright (c) 2000-2008 Fabrice Bellard, et al.
  configuration: --enable-gpl --enable-libfaad --enable-pp --enable-swscaler --enable-x11grab --prefix=/usr --enable-libgsm --enable-libtheora --enable-libvorbis --enable-pthreads --disable-strip --enable-libdc1394 --disable-armv5te --disable-armv6 --disable-altivec --disable-vis --enable-shared --disable-static
  libavutil version: 49.6.0
  libavcodec version: 51.50.0
  libavformat version: 52.7.0
  libavdevice version: 52.0.0
  built on Jul 16 2008 11:03:12, gcc: 4.3.1
Input #0, mov,mp4,m4a,3gp,3g2,mj2, from 'Pollastre estiu 2008 platja.MOV':
  Duration: 00:00:22.4, start: 0.000000, bitrate: 2555 kb/s
    Stream #0.0(eng): Video: mjpeg, yuvj422p, 320x240 [PAR 0:1 DAR 0:1], 15.00 tb(r)
Output #0, avi, to 'prova.avi':
    Stream #0.0(eng): Video: rawvideo, yuvj422p, 320x240 [PAR 0:1 DAR 0:1], q=2-31, 200 kb/s, 15.00 tb(c)
Stream mapping:
  Stream #0.0 -> #0.0
Press [q] to stop encoding
ffmpeg: symbol lookup error: ffmpeg: undefined symbol: frame_hook_process
adria at compiuta:~/Desktop/prov$

Also the terminal hangs after this error and I'm able to type no more.

The version of ffmpeg I'm using is:

adria at compiuta:~$ dpkg -l|grep ffmpeg
ii  ffmpeg                               0.svn20080206-11            multimedia player, server and encoder

-------------- next part --------------
An HTML attachment was scrubbed...
URL: http://lists.alioth.debian.org/pipermail/pkg-multimedia-maintainers/attachments/20080723/c7f484dd/attachment.htm 

More information about the pkg-multimedia-maintainers mailing list